<?xml version="1.0" standalone="no"?>
<!DOCTYPE svg PUBLIC "-//W3C//DTD SVG 1.1//EN" "http://www.w3.org/Graphics/SVG/1.1/DTD/svg11.dtd">
<svg xmlns="http://www.w3.org/2000/svg">
<metadata>IconScout</metadata>
<defs>
<font id="unicons-12" horiz-adv-x="1000" >
<font-face font-family="unicons-12" font-weight="400" font-stretch="normal" units-per-em="1000" ascent="850" descent="-150" />
<missing-glyph horiz-adv-x="1000" />
<glyph glyph-name="mountains-sun" unicode="&#xead7;" d="M750 433a167 167 0 1 1-167 167 167 167 0 0 1 167-167z m0 250a83 83 0 1 0-83-83 83 83 0 0 0 83 83z m-48-353a42 42 0 0 1-71 0l-41-67-138 233a42 42 0 0 1-71 0l-292-500a42 42 0 0 1 36-63h750a42 42 0 0 1 35 64z m-267-313h-237l219 375 122-209-52-83z m98 0l62 98 30 45h0l42 70 133-213z" horiz-adv-x="1000" />

<glyph glyph-name="history" unicode="&#xead8;" d="M500 767a417 417 0 0 1-287-116v74a42 42 0 0 1-83 0v-187a42 42 0 0 1 42-42h187a42 42 0 0 1 0 83h-100a333 333 0 1 0-92-229 42 42 0 0 1-84 0 417 417 0 1 1 417 417z m0-250a42 42 0 0 1-42-42v-125a42 42 0 0 1 42-42h83a42 42 0 0 1 0 84h-41v83a42 42 0 0 1-42 42z" horiz-adv-x="1000" />

<glyph glyph-name="n-a" unicode="&#xead9;" d="M792 600h-42a125 125 0 0 1-125-125v-333a42 42 0 0 1 83 0v166h125v-166a42 42 0 0 1 84 0v333a125 125 0 0 1-125 125z m41-208h-125v83a42 42 0 0 0 42 42h42a42 42 0 0 0 41-42z m-500 208a42 42 0 0 1-41-42v-240l-130 259a42 42 0 0 1-79-19v-416a42 42 0 0 1 84 0v240l129-259a42 42 0 0 1 37-23 38 38 0 0 1 10 0 42 42 0 0 1 32 42v416a42 42 0 0 1-42 42z m167 83a42 42 0 0 1-42-41v-584a42 42 0 0 1 84 0v584a42 42 0 0 1-42 41z" horiz-adv-x="1000" />

<glyph glyph-name="plane" unicode="&#xeada;" d="M906 350a42 42 0 0 1-23 37l-255 128v166a128 128 0 1 1-256 0v-166l-255-128a42 42 0 0 1-23-37v-139a42 42 0 0 1 18-34 42 42 0 0 1 38-5l222 83v-155l-76-25a42 42 0 0 1-28-40v-102a42 42 0 0 1 12-29 42 42 0 0 1 29-12h382a42 42 0 0 1 42 41v105a42 42 0 0 1-28 39l-77 23v155l222-83a42 42 0 0 1 38 4 42 42 0 0 1 18 35z m-304 4a42 42 0 0 1-39-4 42 42 0 0 1-18-35v-243a42 42 0 0 1 29-39l75-25v-33h-299v33l76 25a42 42 0 0 1 29 39v243a42 42 0 0 1-18 35 42 42 0 0 1-39 4l-221-83v53l254 128a42 42 0 0 1 24 37v191a45 45 0 1 0 90 0v-191a42 42 0 0 1 23-37l255-128v-53z" horiz-adv-x="1000" />

<glyph glyph-name="plane-departure" unicode="&#xeadb;" d="M917 638a128 128 0 0 1-220 91l-117-117-270 90a42 42 0 0 1-42-10l-99-98a42 42 0 0 1 12-67l216-98-108-109-72 36a42 42 0 0 1-48-6l-74-75a42 42 0 0 1 0-59l271-271a42 42 0 0 1 59 0l75 74a42 42 0 0 1 8 49l-36 71 108 108 98-216a42 42 0 0 1 67-12l99 99a42 42 0 0 1 10 41l-90 271 115 118a127 127 0 0 1 38 90z m-97-32l-135-135a42 42 0 0 1-10-41l90-270-37-38-98 215a42 42 0 0 1-31 24 42 42 0 0 1-37-11l-172-174a42 42 0 0 1-8-48l35-70-24-23-209 210 24 22 72-36a42 42 0 0 1 48 8l172 173a42 42 0 0 1-12 68l-217 98 37 37 270-90a42 42 0 0 1 42 10l135 135a45 45 0 0 0 64 0 42 42 0 0 0 13-32 44 44 0 0 0-12-32z" horiz-adv-x="1000" />

<glyph glyph-name="auto-flash" unicode="&#xeadc;" d="M745 492a42 42 0 0 1-37 25h-190l52 197a42 42 0 0 1-7 36 42 42 0 0 1-33 17h-292a42 42 0 0 1-41-31l-112-417a42 42 0 0 1 42-52h160l-75-281a42 42 0 0 1 71-39l454 500a42 42 0 0 1 8 45z m-408-362l45 167a42 42 0 0 1-7 37 42 42 0 0 1-34 16h-160l89 333h206l-53-197a42 42 0 0 1 42-53h148z m455 178h-42a125 125 0 0 1-125-125v-208a42 42 0 0 1 83 0v83h125v-83a42 42 0 0 1 84 0v208a125 125 0 0 1-125 125z m41-166h-125v41a42 42 0 0 0 42 42h42a42 42 0 0 0 41-42z" horiz-adv-x="1000" />

<glyph glyph-name="glass-martini" unicode="&#xeadd;" d="M750 17h-208v211a375 375 0 0 1 333 372 363 363 0 0 1-28 141 42 42 0 0 1-9 14l-5 3a38 38 0 0 1-8 5 39 39 0 0 1-12 4l-4 0h-618l-3 0a39 39 0 0 1-13-3 88 88 0 0 1-8-6l-5-3a42 42 0 0 1-9-14 363 363 0 0 1-28-141 375 375 0 0 1 333-372v-211h-208a42 42 0 0 1 0-84h500a42 42 0 0 1 0 84z m-542 583a288 288 0 0 0 12 83h560a288 288 0 0 0 12-83 292 292 0 0 0-584 0z" horiz-adv-x="1000" />

<glyph glyph-name="mobile-vibrate" unicode="&#xeade;" d="M412 262l-7 5-7 4-8 2a42 42 0 0 1-37-11 35 35 0 0 1-9-14 39 39 0 0 1 0-32 45 45 0 0 1 22-22 42 42 0 0 1 16-4 45 45 0 0 1 16 4 36 36 0 0 1 14 9 42 42 0 0 1 9 13 42 42 0 0 1 3 16 35 35 0 0 1-4 16 39 39 0 0 1-8 14z m-266 223a42 42 0 0 1 30 13l177 176a42 42 0 0 1 0 59 42 42 0 0 1-59 0l-177-177a42 42 0 0 1 0-58 42 42 0 0 1 29-13z m737-282a42 42 0 0 1-59 0l-176-177a42 42 0 0 1 29-71 42 42 0 0 1 29 12l177 175a42 42 0 0 1 0 61z m7 235a125 125 0 0 1-36 89l-177 177a128 128 0 0 1-177 0l-354-354a125 125 0 0 1 0-177l177-177h0a125 125 0 0 1 177 0l354 354a125 125 0 0 1 36 88z m-95-29l-354-354a42 42 0 0 0-59 0h0l-177 177a42 42 0 0 0 0 59l354 354a42 42 0 0 0 59 0l177-177a42 42 0 0 0 0-59z" horiz-adv-x="1000" />

<glyph glyph-name="trees" unicode="&#xeadf;" d="M688 642a203 203 0 0 1-105-29 250 250 0 0 1-479-96v-167a250 250 0 0 1 209-246v-129a42 42 0 0 1 83 0v129a253 253 0 0 1 116 52 208 208 0 0 1 134-93v-88a42 42 0 0 1 83 0v88a208 208 0 0 1 167 204v166a208 208 0 0 1-208 209z m-209-209v-166a218 218 0 0 1 3-24 167 167 0 0 0-86-54v119a42 42 0 0 1-83 0v-119a167 167 0 0 0-125 161v167a167 167 0 0 0 284 118 164 164 0 0 0 44-83 208 208 0 0 1-37-119z m334-166a125 125 0 0 0-84-118v159a42 42 0 0 1-83 0v-159a125 125 0 0 0-84 118v166a125 125 0 0 0 250 0z" horiz-adv-x="1000" />

<glyph glyph-name="voicemail" unicode="&#xeae0;" d="M750 517a167 167 0 0 1-167-167 163 163 0 0 1 24-83h-214a163 163 0 0 1 24 83 167 167 0 1 1-167-167h500a167 167 0 0 1 0 334z m-500-250a83 83 0 1 0 83 83 83 83 0 0 0-83-83z m500 0a83 83 0 1 0 83 83 83 83 0 0 0-83-83z" horiz-adv-x="1000" />

<glyph glyph-name="voicemail-rectangle" unicode="&#xeae1;" d="M833 683h-666a125 125 0 0 1-125-125v-416a125 125 0 0 1 125-125h666a125 125 0 0 1 125 125v416a125 125 0 0 1-125 125z m42-541a42 42 0 0 0-42-42h-666a42 42 0 0 0-42 42v416a42 42 0 0 0 42 42h666a42 42 0 0 0 42-42z m-208 333a125 125 0 0 1-118-167h-98a125 125 0 1 1-118-83h334a125 125 0 0 1 0 250z m-334-167a42 42 0 1 0 42 42 42 42 0 0 0-42-42z m334 0a42 42 0 1 0 41 42 42 42 0 0 0-41-42z" horiz-adv-x="1000" />

<glyph glyph-name="plane-fly" unicode="&#xeae2;" d="M958 462a44 44 0 0 1-4 31 205 205 0 0 1-281 75l-90-51-208 98a42 42 0 0 1-38 0l-125-72a42 42 0 0 1-21-35 42 42 0 0 1 19-37l138-86-73-42-199-24a42 42 0 0 1-22-73l147-128a125 125 0 0 1 148-18l589 336a42 42 0 0 1 20 26z m-647-292a42 42 0 0 0-50 8l-79 67 114 14a42 42 0 0 1 16 6l140 80a42 42 0 0 1 20 35 42 42 0 0 1-19 36l-138 87 46 27 209-97a42 42 0 0 1 38 0l107 62a125 125 0 0 0 140-12z" horiz-adv-x="1000" />

<glyph glyph-name="sync-exclamation" unicode="&#xeae3;" d="M470 195a42 42 0 0 1 72 30 44 44 0 0 1-12 30 42 42 0 0 1-46 8 42 42 0 0 1-14-8 44 44 0 0 1-12-30 42 42 0 0 1 12-30z m360 9h-189a42 42 0 0 1 0-84h100a333 333 0 0 0-574 230 42 42 0 0 1-84 0 417 417 0 0 1 704-301v-74a42 42 0 0 1 83 0v188a42 42 0 0 1-40 41z m-330 563a417 417 0 0 1-287-116v74a42 42 0 0 1-83 0v-187a42 42 0 0 1 42-42h187a42 42 0 0 1 0 83h-100a333 333 0 0 0 574-229 42 42 0 0 1 84 0 417 417 0 0 1-417 417z m0-459a42 42 0 0 1 42 42v125a42 42 0 0 1-84 0v-125a42 42 0 0 1 42-42z" horiz-adv-x="1000" />

<glyph glyph-name="tachometer-fast" unicode="&#xeae4;" d="M637 421l-116-116a87 87 0 0 1-21 3 83 83 0 0 1-83-83 87 87 0 0 1 3-21l-33-33a42 42 0 0 1 0-59 42 42 0 0 1 59 0l33 33a87 87 0 0 1 21-3 83 83 0 0 1 83 83 87 87 0 0 1-3 21l116 116a42 42 0 0 1-59 59z m-137 262a417 417 0 0 1-417-416 413 413 0 0 1 71-232 42 42 0 0 1 69 47 333 333 0 1 0 554 0 42 42 0 0 1 11-58 42 42 0 0 1 24-7 42 42 0 0 1 34 18 413 413 0 0 1 71 232 417 417 0 0 1-417 416z" horiz-adv-x="1000" />

<glyph glyph-name="sign-in-alt" unicode="&#xeae5;" d="M854 221a42 42 0 0 1-56-19 333 333 0 1 0-298 481 330 330 0 0 0 298-185 42 42 0 0 1 75 37 417 417 0 1 1 0-370 42 42 0 0 1-19 56z m21 171h-400l96 95a42 42 0 1 1-59 59l-167-166a42 42 0 0 1-8-14 42 42 0 0 1 0-32 42 42 0 0 1 8-14l167-166a42 42 0 0 1 59 0 42 42 0 0 1 0 59l-96 95h400a42 42 0 0 1 0 84z" horiz-adv-x="1000" />

<glyph glyph-name="archive-alt" unicode="&#xeae6;" d="M417 308h166a42 42 0 0 1 0 84h-166a42 42 0 0 1 0-84z m375 417h-584a125 125 0 0 1-41-242v-383a125 125 0 0 1 125-125h416a125 125 0 0 1 125 125v383a125 125 0 0 1-41 242z m-42-625a42 42 0 0 0-42-42h-416a42 42 0 0 0-42 42v375h500z m42 458h-584a42 42 0 0 0 0 84h584a42 42 0 0 0 0-84z" horiz-adv-x="1000" />

<glyph glyph-name="power" unicode="&#xeae7;" d="M425 591l33 34v-192a42 42 0 0 1 84 0v192l33-34a42 42 0 0 1 59 0 42 42 0 0 1 0 59l-104 105a42 42 0 0 1-14 8 42 42 0 0 1-32 0 42 42 0 0 1-14-8l-104-105a42 42 0 0 1 59-59z m325-56a42 42 0 1 1-60-60 269 269 0 1 0-380 0 42 42 0 1 1-60 60 353 353 0 1 1 500 0z" horiz-adv-x="1000" />

<glyph glyph-name="pizza-slice" unicode="&#xeae9;" d="M355 330a42 42 0 1 1 41-42 42 42 0 0 1-41 42z m0 187a42 42 0 1 1 41-42 42 42 0 0 1-41 42z m145-84a42 42 0 0 1-42-41v-42a42 42 0 0 1 84 0v42a42 42 0 0 1-42 41z m354 60l0 0a125 125 0 0 1-96 12 121 121 0 0 1-45-23l-483 279a42 42 0 0 1-42 0 42 42 0 0 1-21-36v-549a122 122 0 0 1-84-118h0a125 125 0 0 1 122-125h24a774 774 0 0 1 671 392 125 125 0 0 1-45 168z m-604 160l412-238a524 524 0 0 0-412-232z m578-287a691 691 0 0 0-620-349 42 42 0 0 0-41 41 42 42 0 0 0 12 30 42 42 0 0 0 29 12h22a604 604 0 0 1 525 307 38 38 0 0 0 25 18 42 42 0 0 0 31-3h0a42 42 0 0 0 17-56z" horiz-adv-x="1000" />

<glyph glyph-name="refresh" unicode="&#xeaea;" d="M830 204h-189a42 42 0 0 1 0-84h100a333 333 0 0 0-574 230 42 42 0 0 1-84 0 417 417 0 0 1 704-301v-74a42 42 0 0 1 83 0v188a42 42 0 0 1-40 41z m-205 146a125 125 0 1 1-125-125 125 125 0 0 1 125 125z m-167 0a42 42 0 1 0 42-42 42 42 0 0 0-42 42z m42 417a417 417 0 0 1-287-116v74a42 42 0 0 1-83 0v-187a42 42 0 0 1 42-42h187a42 42 0 0 1 0 83h-100a333 333 0 0 0 574-229 42 42 0 0 1 84 0 417 417 0 0 1-417 417z" horiz-adv-x="1000" />

<glyph glyph-name="anchor" unicode="&#xeaeb;" d="M792 308h-84a42 42 0 0 1 0-83h38a250 250 0 0 0-204-205v372h41a42 42 0 0 1 0 83h-41v49a125 125 0 1 1-84 0v-49h-41a42 42 0 0 1 0-83h41v-372a250 250 0 0 0-204 205h38a42 42 0 0 1 0 83h-84a42 42 0 0 1-41-41 333 333 0 0 1 666 0 42 42 0 0 1-41 41z m-292 292a42 42 0 1 0 42 42 42 42 0 0 0-42-42z" horiz-adv-x="1000" />

<glyph glyph-name="sync-slash" unicode="&#xeaec;" d="M828 204h-187a42 42 0 0 1 0-83h100a333 333 0 0 0-241-104 337 337 0 0 0-130 26l-62-62a410 410 0 0 1 192-48 417 417 0 0 1 287 116v-74a42 42 0 0 1 83 0v188a42 42 0 0 1-42 41z m-65 350h0l59 60h0l84 83a42 42 0 1 1-59 59l-84-83a412 412 0 0 1-263 94 417 417 0 0 1-287-116v74a42 42 0 0 1-83 0v-187a42 42 0 0 1 42-42h187a42 42 0 0 1 0 83h-100a330 330 0 0 0 445 34l-467-467a330 330 0 0 0-70 204 42 42 0 0 1-84 0 412 412 0 0 1 95-263l-83-84a42 42 0 0 1 0-59 42 42 0 0 1 59 0l83 84h0l60 59h0z m44-74a337 337 0 0 0 26-130 42 42 0 0 1 84 0 410 410 0 0 1-48 192z" horiz-adv-x="1000" />

<glyph glyph-name="upload" unicode="&#xeaed;" d="M363 529l95 96v-400a42 42 0 0 1 84 0v400l95-96a42 42 0 0 1 59 0 42 42 0 0 1 0 59l-166 167a42 42 0 0 1-14 8 42 42 0 0 1-32 0 42 42 0 0 1-14-8l-166-167a42 42 0 1 1 59-59z m512-179a42 42 0 0 1-42-42v-250a42 42 0 0 0-41-41h-584a42 42 0 0 0-41 41v250a42 42 0 0 1-84 0v-250a125 125 0 0 1 125-125h584a125 125 0 0 1 125 125v250a42 42 0 0 1-42 42z" horiz-adv-x="1000" />

<glyph glyph-name="glass" unicode="&#xeaee;" d="M823 753a42 42 0 0 1-31 14h-584a42 42 0 0 1-31-14 42 42 0 0 1-10-33l75-675a125 125 0 0 1 125-112h267a125 125 0 0 1 125 112l74 675a42 42 0 0 1-10 33z m-148-699a42 42 0 0 0-42-37h-267a42 42 0 0 0-41 37l-42 379h434z m52 463h-454l-18 166h490z" horiz-adv-x="1000" />

<glyph glyph-name="sign-out-alt" unicode="&#xeaef;" d="M525 308l-96-95a42 42 0 0 1 0-59 42 42 0 0 1 59 0l167 166a42 42 0 0 1 8 14 42 42 0 0 1 0 32 42 42 0 0 1-8 14l-167 166a42 42 0 1 1-59-59l96-95h-400a42 42 0 0 1 0-84z m-25 459a417 417 0 0 1-375-232 42 42 0 0 1 75-37 333 333 0 1 0 300-481 330 330 0 0 0-298 185 42 42 0 0 1-75-37 417 417 0 1 1 373 602z" horiz-adv-x="1000" />

<glyph glyph-name="newspaper" unicode="&#xeaf0;" d="M708 392h-41a42 42 0 0 1 0-84h41a42 42 0 0 1 0 84z m0-167h-41a42 42 0 0 1 0-83h41a42 42 0 0 1 0 83z m-250 250h250a42 42 0 0 1 0 83h-250a42 42 0 0 1 0-83z m417 250h-583a42 42 0 0 1-42-42v-125h-125a42 42 0 0 1-42-41v-417a125 125 0 0 1 125-125h542a167 167 0 0 1 167 167v541a42 42 0 0 1-42 42z m-625-625a42 42 0 0 0-83 0v375h83z m583 42a83 83 0 0 0-83-84h-424a125 125 0 0 1 7 42v542h500z m-375 166h42a42 42 0 0 1 0 84h-42a42 42 0 0 1 0-84z m0-166h42a42 42 0 0 1 0 83h-42a42 42 0 0 1 0-83z" horiz-adv-x="1000" />

<glyph glyph-name="signin" unicode="&#xeaf1;" d="M833 350a42 42 0 0 1-41 42h-317l96 95a42 42 0 1 1-59 59l-167-166a42 42 0 0 1-8-14 42 42 0 0 1 0-32 42 42 0 0 1 8-14l167-166a42 42 0 0 1 59 0 42 42 0 0 1 0 59l-96 95h317a42 42 0 0 1 41 42z m-125 417h-416a125 125 0 0 1-125-125v-584a125 125 0 0 1 125-125h416a125 125 0 0 1 125 125v125a42 42 0 0 1-83 0v-125a42 42 0 0 0-42-41h-416a42 42 0 0 0-42 41v584a42 42 0 0 0 42 41h416a42 42 0 0 0 42-41v-125a42 42 0 0 1 83 0v125a125 125 0 0 1-125 125z" horiz-adv-x="1000" />

<glyph glyph-name="processor" unicode="&#xeaf2;" d="M583 475h-166a42 42 0 0 1-42-42v-166a42 42 0 0 1 42-42h166a42 42 0 0 1 42 42v166a42 42 0 0 1-42 42z m-41-167h-84v84h84z m333 0a42 42 0 0 1 0 84h-83v83h83a42 42 0 0 1 0 83h-91a125 125 0 0 1-76 76v91a42 42 0 0 1-83 0v-83h-83v83a42 42 0 0 1-84 0v-83h-83v83a42 42 0 0 1-83 0v-91a125 125 0 0 1-76-76h-91a42 42 0 0 1 0-83h83v-83h-83a42 42 0 0 1 0-84h83v-83h-83a42 42 0 0 1 0-83h91a125 125 0 0 1 76-76v-91a42 42 0 0 1 83 0v83h83v-83a42 42 0 0 1 84 0v83h83v-83a42 42 0 0 1 83 0v91a125 125 0 0 1 76 76h91a42 42 0 0 1 0 83h-83v83z m-167-125a42 42 0 0 0-41-41h-334a42 42 0 0 0-41 41v334a42 42 0 0 0 41 41h334a42 42 0 0 0 41-41z" horiz-adv-x="1000" />

<glyph glyph-name="hunting" unicode="&#xeaf3;" d="M500 475a125 125 0 1 1 125-125 125 125 0 0 1-125 125z m0-167a42 42 0 1 0 42 42 42 42 0 0 0-42-42z m375 84h-45a333 333 0 0 1-288 288v45a42 42 0 0 1-84 0v-45a333 333 0 0 1-288-288h-45a42 42 0 0 1 0-84h45a333 333 0 0 1 288-288v-45a42 42 0 0 1 84 0v45a333 333 0 0 1 288 288h45a42 42 0 0 1 0 84z m-375-292a250 250 0 1 0 250 250 250 250 0 0 0-250-250z" horiz-adv-x="1000" />

<glyph glyph-name="coffee" unicode="&#xeaf4;" d="M375 142h167a208 208 0 0 1 208 208v42h42a125 125 0 0 1 0 250h-42v41a42 42 0 0 1-42 42h-500a42 42 0 0 1-41-42v-333a208 208 0 0 1 208-208z m375 416h42a42 42 0 0 0 0-83h-42z m-500 84h417v-292a125 125 0 0 0-125-125h-167a125 125 0 0 0-125 125z m625-584h-750a42 42 0 0 1 0-83h750a42 42 0 0 1 0 83z" horiz-adv-x="1000" />

<glyph glyph-name="history-alt" unicode="&#xeaf5;" d="M477 767a417 417 0 0 1-287-116v74a42 42 0 0 1-83 0v-187a42 42 0 0 1 41-42h188a42 42 0 0 1 0 83h-100a333 333 0 1 0 241-562 42 42 0 1 1 0-84 417 417 0 1 1 0 834z m0-250a42 42 0 0 1-42-42v-125a42 42 0 0 1 42-42h83a42 42 0 0 1 0 84h-42v83a42 42 0 0 1-41 42z" horiz-adv-x="1000" />

<glyph glyph-name="weight" unicode="&#xeaf6;" d="M792 683h-61a128 128 0 0 1-23 42 125 125 0 0 1-93 42h-229a125 125 0 0 1-94-42 128 128 0 0 1-24-42h-60a125 125 0 0 1-125-125v-500a125 125 0 0 1 125-125h584a125 125 0 0 1 125 125v500a125 125 0 0 1-125 125z m-437-14a42 42 0 0 0 31 14h228a42 42 0 0 0 31-14 42 42 0 0 0 10-32l-20-167a42 42 0 0 0-42-37h-68l47 100a42 42 0 0 1-75 36l-65-136h-25a42 42 0 0 0-42 37l-20 167a42 42 0 0 0 10 32z m478-611a42 42 0 0 0-41-41h-584a42 42 0 0 0-41 41v500a42 42 0 0 0 41 42h57l18-140a125 125 0 0 1 125-110h186a125 125 0 0 1 125 110l16 140h57a42 42 0 0 0 41-42z m-250 125h-166a42 42 0 0 1 0-83h166a42 42 0 0 1 0 83z" horiz-adv-x="1000" />

<glyph glyph-name="plane-arrival" unicode="&#xeaf7;" d="M880 174a208 208 0 0 1-96 125l-88 51-20 228a42 42 0 0 1-20 32l-125 72a42 42 0 0 1-42 0 42 42 0 0 1-21-35l-7-162-73 41-119 161a42 42 0 0 1-74-17l-36-192a125 125 0 0 1 58-138l586-337a42 42 0 0 1 56 14 205 205 0 0 1 21 157z m-78-74l-544 313a42 42 0 0 0-18 47l19 101 69-91a42 42 0 0 1 13-12l139-80a42 42 0 0 1 63 34l7 163 45-27 20-228a42 42 0 0 1 21-32l107-63a121 121 0 0 0 56-74 114 114 0 0 0 3-51z" horiz-adv-x="1000" />

<glyph glyph-name="gift" unicode="&#xeaf8;" d="M750 558h-15a144 144 0 0 1 15 63 145 145 0 0 1-250 102 145 145 0 0 1-250-102 144 144 0 0 1 15-63h-15a125 125 0 0 1-125-125v-83a42 42 0 0 1 42-42h41v-250a125 125 0 0 1 125-125h334a125 125 0 0 1 125 125v250h41a42 42 0 0 1 42 42v83a125 125 0 0 1-125 125z m-292-541h-125a42 42 0 0 0-41 41v250h166z m0 375h-250v41a42 42 0 0 0 42 42h208z m0 166h-62a63 63 0 1 0 62 63z m84 63a63 63 0 1 0 62-63h-62z m166-563a42 42 0 0 0-41-41h-125v291h166z m84 334h-250v83h208a42 42 0 0 0 42-42z" horiz-adv-x="1000" />

<glyph glyph-name="circuit" unicode="&#xeaf9;" d="M417 308a42 42 0 1 1 41-41 42 42 0 0 1-41 41z m0 167a42 42 0 1 1 41-42 42 42 0 0 1-41 42z m166 0a42 42 0 1 1 42-42 42 42 0 0 1-42 42z m292-167a42 42 0 0 1 0 84h-83v83h83a42 42 0 0 1 0 83h-91a125 125 0 0 1-76 76v91a42 42 0 0 1-83 0v-83h-83v83a42 42 0 0 1-84 0v-83h-83v83a42 42 0 0 1-83 0v-91a125 125 0 0 1-76-76h-91a42 42 0 0 1 0-83h83v-83h-83a42 42 0 0 1 0-84h83v-83h-83a42 42 0 0 1 0-83h91a125 125 0 0 1 76-76v-91a42 42 0 0 1 83 0v83h83v-83a42 42 0 0 1 84 0v83h83v-83a42 42 0 0 1 83 0v91a125 125 0 0 1 76 76h91a42 42 0 0 1 0 83h-83v83z m-167-125a42 42 0 0 0-41-41h-334a42 42 0 0 0-41 41v334a42 42 0 0 0 41 41h334a42 42 0 0 0 41-41z m-125 125a42 42 0 1 1 42-41 42 42 0 0 1-42 41z" horiz-adv-x="1000" />

<glyph glyph-name="archive" unicode="&#xeafa;" d="M417 267h166a42 42 0 0 1 0 83h-166a42 42 0 0 1 0-83z m375 458h-584a125 125 0 0 1-125-125v-125a42 42 0 0 1 42-42h42v-333a125 125 0 0 1 125-125h416a125 125 0 0 1 125 125v333h42a42 42 0 0 1 42 42v125a125 125 0 0 1-125 125z m-42-625a42 42 0 0 0-42-42h-416a42 42 0 0 0-42 42v333h500z m83 417h-666v83a42 42 0 0 0 41 42h584a42 42 0 0 0 41-42z" horiz-adv-x="1000" />

<glyph glyph-name="ban" unicode="&#xeafb;" d="M500 767a417 417 0 1 1 417-417 417 417 0 0 1-417 417z m0-750a333 333 0 0 0-333 333 330 330 0 0 0 70 204l467-467a330 330 0 0 0-204-70z m263 129l-467 467a330 330 0 0 0 204 70 333 333 0 0 0 333-333 330 330 0 0 0-70-204z" horiz-adv-x="1000" />

<glyph glyph-name="crosshair-alt" unicode="&#xeafc;" d="M500 392a42 42 0 1 1 42-42 42 42 0 0 1-42 42z m0 375a417 417 0 1 1 417-417 417 417 0 0 1-417 417z m42-747v122a42 42 0 0 1-84 0v-122a333 333 0 0 0-288 288h122a42 42 0 0 1 0 84h-122a333 333 0 0 0 288 288v-122a42 42 0 0 1 84 0v122a333 333 0 0 0 288-288h-122a42 42 0 0 1 0-84h122a333 333 0 0 0-288-288z" horiz-adv-x="1000" />

<glyph glyph-name="crosshair" unicode="&#xeafd;" d="M875 392h-45a333 333 0 0 1-288 288v45a42 42 0 0 1-84 0v-45a333 333 0 0 1-288-288h-45a42 42 0 0 1 0-84h45a333 333 0 0 1 288-288v-45a42 42 0 0 1 84 0v45a333 333 0 0 1 288 288h45a42 42 0 0 1 0 84z m-167-84h38a250 250 0 0 0-204-204v38a42 42 0 0 1-84 0v-38a250 250 0 0 0-204 204h38a42 42 0 0 1 0 84h-38a250 250 0 0 0 204 204v-38a42 42 0 0 1 84 0v38a250 250 0 0 0 204-204h-38a42 42 0 0 1 0-84z m-208 84a42 42 0 1 1 42-42 42 42 0 0 1-42 42z" horiz-adv-x="1000" />

<glyph glyph-name="record-audio" unicode="&#xeafe;" d="M500 767a417 417 0 1 1 417-417 417 417 0 0 1-417 417z m0-750a333 333 0 1 0 333 333 333 333 0 0 0-333-333z m0 583a250 250 0 1 1 250-250 250 250 0 0 1-250 250z m0-417a167 167 0 1 0 167 167 167 167 0 0 0-167-167z" horiz-adv-x="1000" />

<glyph glyph-name="flower" unicode="&#xeaff;" d="M820 563a183 183 0 0 1-138 14 182 182 0 0 1-364 0 187 187 0 0 1-138-12 182 182 0 0 1 26-334 183 183 0 0 1-34-104 208 208 0 0 1 3-31 181 181 0 0 1 179-151 195 195 0 0 1 27 0 184 184 0 0 1 119 72 184 184 0 0 1 119-71 195 195 0 0 1 27 0 182 182 0 0 1 148 287 182 182 0 0 1 26 333z m-389 81a100 100 0 0 0 138 0 101 101 0 0 0 22-111l-11-24-28-24a170 170 0 0 1-52 9 167 167 0 0 1-67-14l-23 53a100 100 0 0 0 21 111z m-254-285a99 99 0 0 0 154 116l20-18 15-33a163 163 0 0 1-33-97 119 119 0 0 1 0-19l-23 0h0l-35-3a99 99 0 0 0-98 54z m275-253a99 99 0 0 0-194 3 128 128 0 0 0 0 18 97 97 0 0 0 48 83l22 15 37 4a167 167 0 0 1 100-65z m48 138a83 83 0 1 0 83 83 83 83 0 0 0-83-83z m243-134a98 98 0 0 0-112-81 100 100 0 0 0-83 77l-6 25 8 38a167 167 0 0 1 92 74l21-13 4 0 27-16a99 99 0 0 0 49-104z m80 250a100 100 0 0 0-88-56h-10l-27 4-31 17v0a167 167 0 0 1-42 110l18 16 0 0 26 24a99 99 0 0 0 154-117z" horiz-adv-x="1000" />

<glyph glyph-name="airplay" unicode="&#xeb00;" d="M535 290a42 42 0 0 1-70 0l-166-250a42 42 0 0 1 0-42 42 42 0 0 1 34-23h334a42 42 0 0 1 36 22 42 42 0 0 1-2 42z m-124-232l89 134 89-134z m381 667h-584a125 125 0 0 1-125-125v-375a125 125 0 0 1 125-125h36a42 42 0 1 1 0 83h-36a42 42 0 0 0-41 42v375a42 42 0 0 0 41 42h584a42 42 0 0 0 41-42v-375a42 42 0 0 0-41-42h-36a42 42 0 0 1 0-83h36a125 125 0 0 1 125 125v375a125 125 0 0 1-125 125z" horiz-adv-x="1000" />

<glyph glyph-name="rss-interface" unicode="&#xeb01;" d="M125 267a42 42 0 0 1 0-84 125 125 0 0 0 125-125 42 42 0 0 1 83 0 208 208 0 0 1-208 209z m-30-179a42 42 0 1 1 60 0 42 42 0 0 1-60 0z m697 595h-584a125 125 0 0 1-125-125 42 42 0 0 1 84 0 42 42 0 0 0 41 42h584a42 42 0 0 0 41-42v-416a42 42 0 0 0-41-42h-167a42 42 0 0 1 0-83h167a125 125 0 0 1 125 125v416a125 125 0 0 1-125 125z m-667-250a42 42 0 0 1 0-83 292 292 0 0 0 292-292 42 42 0 0 1 83 0 375 375 0 0 1-375 375z" horiz-adv-x="1000" />

<glyph glyph-name="equal-circle" unicode="&#xeb02;" d="M625 308h-250a42 42 0 0 1 0-83h250a42 42 0 0 1 0 83z m0 167h-250a42 42 0 0 1 0-83h250a42 42 0 0 1 0 83z m-125 292a417 417 0 1 1 417-417 417 417 0 0 1-417 417z m0-750a333 333 0 1 0 333 333 333 333 0 0 0-333-333z" horiz-adv-x="1000" />

<glyph glyph-name="shutter" unicode="&#xeb03;" d="M795 645a417 417 0 1 1-590-590 417 417 0 1 1 590 590z m-35-87h-228l98 98a339 339 0 0 0 130-98z m-385 100a340 340 0 0 0 161 23l-161-161z m-83-48v-228l-76 75-22 23a339 339 0 0 0 98 130z m-100-385a338 338 0 0 0-23 161l161-161z m48-83h228l-98-98a339 339 0 0 0-130 98z m385-100a339 339 0 0 0-161-23l161 161z m0 256l-73-73h-104l-73 73v104l73 73h104l73-73z m83-208v228l98-98a339 339 0 0 0-98-130z m-38 385h138a339 339 0 0 0 23-161z" horiz-adv-x="1000" />

<glyph glyph-name="microphone-slash" unicode="&#xeb04;" d="M438 695a83 83 0 0 0 122 5 83 83 0 0 0 23-58v-142a42 42 0 0 1 84 0v142a167 167 0 0 1-292 105 42 42 0 1 1 63-52z m342-398l8 0a42 42 0 0 1 42 34 330 330 0 0 1 3 61 42 42 0 0 1-83 0 231 231 0 0 0-5-46 42 42 0 0 1 35-49z m125-252l-750 750a42 42 0 0 1-59 0 42 42 0 0 1 0-59l237-239v-105a167 167 0 0 1 250-144l61-61a250 250 0 0 0-394 205 42 42 0 0 1-83 0 333 333 0 0 1 291-331v-86h-83a42 42 0 0 1 0-83h250a42 42 0 0 1 0 83h-83v86a328 328 0 0 1 160 67l142-142a42 42 0 0 1 59 59z m-405 263a83 83 0 0 0-83 84v21l102-102a73 73 0 0 0-19-3z" horiz-adv-x="1000" />

<glyph glyph-name="life-ring" unicode="&#xeb05;" d="M917 390c0 4 0 9 0 13l-4 25-4 17c0 7-3 14-5 21s-4 11-6 17a90 90 0 0 0-3 10s0 0 0 2a421 421 0 0 1-245 245s0 0-2 0l-10 3-18 6c-6 0-12 3-19 5l-19 4-19 3c-7 0-13 0-20 2s-15 0-22 0l-21 4-16 0c-7 0-15 0-22 0s-13 0-20-3l-19-3-19-4c-7 0-13-3-19-5l-18-5-10-3s0 0-2 0a421 421 0 0 1-245-246s0 0 0-2a90 90 0 0 0-3-10c0-6-4-11-6-17s-4-14-5-21l-4-16-4-25c0-5 0-10 0-14 0-13 0-26 0-40s0-26 0-39c0-5 0-9 0-14l4-25 4-16c0-7 3-14 5-21s4-12 6-17a90 90 0 0 0 3-10 18 18 0 0 0 0-3 417 417 0 0 1 245-245s0 0 2 0l10-3 17-5 21-6 16-4 25-3 14 0c13 0 26-2 40-2s26 0 39 2l14 0 25 3 16 4 21 6 17 5 10 3s0 0 2 0a417 417 0 0 1 246 245 18 18 0 0 0 0 3c0 3 2 7 2 10s4 11 6 17 4 14 5 21l4 16 4 25c0 5 0 9 0 14 0 13 2 26 2 39s4 24 4 37z m-263 256a333 333 0 0 0 144-144l-119-42a214 214 0 0 1-68 69z m-223 29c9 3 17 4 25 5l10 0a343 343 0 0 0 72 0l10 0c8 0 17-2 25-5h3l-42-119a187 187 0 0 1-34 2 183 183 0 0 1-30-2l-42 119z m-81-29l42-119a214 214 0 0 1-69-68l-119 41a333 333 0 0 0 144 146z m-175-367a174 174 0 0 0-5 25c0 4 0 7 0 10a309 309 0 0 0 0 72c0 3 0 6 0 10a174 174 0 0 0 5 25s0 0 0 3l119-42a186 186 0 0 1 0-61l-119-41s0-2 0-1z m173-225a333 333 0 0 0-144 144l119 42a214 214 0 0 1 68-69z m223-29c-8-2-17-4-25-5l-10 0a343 343 0 0 0-72 0l-10 0c-8 0-16 3-25 5h-3l42 119a186 186 0 0 1 61 0l41-119z m-28 208h0c-7-3-14-4-20-6a114 114 0 0 0-42 0c-7 0-14 3-21 6h0a125 125 0 0 0-77 75v0a135 135 0 0 0-6 22 110 110 0 0 0 0 41 135 135 0 0 0 6 21v0a125 125 0 0 0 75 75h0c7 2 15 4 21 6a114 114 0 0 0 42 0c6 0 14-4 21-6h0a125 125 0 0 0 75-75v0a135 135 0 0 0 6-22 110 110 0 0 0 0-41 135 135 0 0 0-6-21v0a125 125 0 0 0-75-75z m109-180l-42 120a214 214 0 0 1 69 68l119-42a333 333 0 0 0-146-145z m181 261c0-3 0-6 0-10a174 174 0 0 0-4-25s0 0 0-3l-119 42a186 186 0 0 1 0 61l119 41s0 0 0-2a174 174 0 0 0 4-25c0-4 0-7 0-10a309 309 0 0 0 0-72z" horiz-adv-x="1000" />

<glyph glyph-name="sliders-v-alt" unicode="&#xeb06;" d="M833 509v216a42 42 0 0 1-83 0v-216a125 125 0 0 1 0-235v-299a42 42 0 0 1 83 0v299a125 125 0 0 1 0 235z m-41-159a42 42 0 1 0 41 42 42 42 0 0 0-41-42z m-250-91v466a42 42 0 0 1-84 0v-466a125 125 0 0 1 0-235v-49a42 42 0 0 1 84 0v49a125 125 0 0 1 0 235z m-42-159a42 42 0 1 0 42 42 42 42 0 0 0-42-42z m-250 493v132a42 42 0 0 1-83 0v-132a125 125 0 0 1 0-235v-383a42 42 0 0 1 83 0v383a125 125 0 0 1 0 235z m-42-160a42 42 0 1 0 42 42 42 42 0 0 0-42-42z" horiz-adv-x="1000" />

<glyph glyph-name="compact-disc" unicode="&#xeb07;" d="M500 767a417 417 0 1 1 417-417 417 417 0 0 1-417 417z m0-750a333 333 0 1 0 333 333 333 333 0 0 0-333-333z m0 458a125 125 0 1 1 125-125 125 125 0 0 1-125 125z m0-167a42 42 0 1 0 42 42 42 42 0 0 0-42-42z" horiz-adv-x="1000" />

<glyph glyph-name="sitemap" unicode="&#xeb08;" d="M917 225h-84v125a42 42 0 0 1-41 42h-250v83h83a42 42 0 0 1 42 42v250a42 42 0 0 1-42 41h-250a42 42 0 0 1-42-41v-250a42 42 0 0 1 42-42h83v-83h-250a42 42 0 0 1-41-42v-125h-84a42 42 0 0 1-41-42v-250a42 42 0 0 1 41-41h250a42 42 0 0 1 42 41v250a42 42 0 0 1-42 42h-83v83h500v-83h-83a42 42 0 0 1-42-42v-250a42 42 0 0 1 42-41h250a42 42 0 0 1 41 41v250a42 42 0 0 1-41 42z m-625-83v-167h-167v167z m125 416v167h166v-167z m458-583h-167v167h167z" horiz-adv-x="1000" />

<glyph glyph-name="sliders-v" unicode="&#xeb09;" d="M292 600h-42v125a42 42 0 0 1-83 0v-125h-42a42 42 0 0 1 0-83h167a42 42 0 0 1 0 83z m-84-167a42 42 0 0 1-41-41v-417a42 42 0 0 1 83 0v417a42 42 0 0 1-42 41z m292-333a42 42 0 0 1-42-42v-83a42 42 0 0 1 84 0v83a42 42 0 0 1-42 42z m375 333h-42v292a42 42 0 0 1-83 0v-292h-42a42 42 0 0 1 0-83h167a42 42 0 0 1 0 83z m-83-166a42 42 0 0 1-42-42v-250a42 42 0 0 1 83 0v250a42 42 0 0 1-41 42z m-209 0h-41v458a42 42 0 0 1-84 0v-458h-41a42 42 0 0 1 0-84h166a42 42 0 0 1 0 84z" horiz-adv-x="1000" />

<glyph glyph-name="shutter-alt" unicode="&#xeb0a;" d="M917 392a42 42 0 0 0 0 6c0 12-4 24-6 35v0a397 397 0 0 1-36 100v0a417 417 0 0 1-292 225h0l-35 5-6 0-12 0h-4l-26 4c-14 0-28 0-42 0l-6 0-35-9h0a417 417 0 0 1-325-325v0c-2-11-4-23-5-35a42 42 0 0 0 0-6c0-14 0-28 0-42s0-28 0-42a42 42 0 0 0 0-6c0-12 3-24 5-35v0a397 397 0 0 1 33-99v0a417 417 0 0 1 292-226h0l35-5 6-4 15 0h5c8 0 15 0 22 0 15 0 29 0 42 2l7 0 34 7h0a417 417 0 0 1 325 325v0c2 11 4 23 5 35a42 42 0 0 0 4 6c0 14 2 28 2 42s-2 28-2 42z m-369 287l21-3h0a333 333 0 0 0 191-118h-284z m-114-3h0l17 2-143-245-70 122a333 333 0 0 0 194 121z m-243-451a333 333 0 0 0-17 57v0c0 9-4 19-4 28a21 21 0 0 0 0 5 343 343 0 0 0 0 68 21 21 0 0 0 0 5c0 10 2 19 4 28v0a323 323 0 0 0 16 55l143-246z m263-205l-21 3h0a333 333 0 0 0-193 119h284z m-26 205l-72 125 72 125h144l72-125-72-125z m140-201h0l-17-3 142 246 70-122a333 333 0 0 0-195-121z m264 291a21 21 0 0 0 0-5c0-9-3-19-4-28v0a323 323 0 0 0-16-53l-145 246h140a333 333 0 0 0 18-57v0c0-9 3-19 4-28a21 21 0 0 0 0-5 343 343 0 0 0 0-68z" horiz-adv-x="1000" />

<glyph glyph-name="clapper-board" unicode="&#xeb0b;" d="M792 767h-584a125 125 0 0 1-125-125v-584a125 125 0 0 1 125-125h584a125 125 0 0 1 125 125v584a125 125 0 0 1-125 125z m-122-84l-166-166h-174l166 166z m-503-41a42 42 0 0 0 41 41h171l-167-166h-45z m666-584a42 42 0 0 0-41-41h-584a42 42 0 0 0-41 41v375h666z m0 459h-212l167 166h4a42 42 0 0 0 41-41z" horiz-adv-x="1000" />

<glyph glyph-name="water" unicode="&#xeb0c;" d="M113 531a107 107 0 0 0 24-10 167 167 0 0 1 171 0 108 108 0 0 0 106 0 173 173 0 0 1 172 0 108 108 0 0 0 106 0 177 177 0 0 1 87-23 162 162 0 0 1 83 23 107 107 0 0 0 24 10 42 42 0 0 1-24 80 185 185 0 0 1-41-18 87 87 0 0 0-88 0 193 193 0 0 1-189 0 88 88 0 0 0-88 0 193 193 0 0 1-189 0 87 87 0 0 0-88 0 185 185 0 0 1-42 18 42 42 0 1 1-23-80z m750-336a185 185 0 0 1-41-19 87 87 0 0 0-88 0 193 193 0 0 1-189 0 88 88 0 0 0-88 0 193 193 0 0 1-189 0 87 87 0 0 0-88 0 185 185 0 0 1-42 19 42 42 0 1 1-23-80 107 107 0 0 0 23-10 167 167 0 0 1 171 0 108 108 0 0 0 107 0 173 173 0 0 1 172 0 108 108 0 0 0 106 0 177 177 0 0 1 87-24 162 162 0 0 1 83 24 107 107 0 0 0 24 10 42 42 0 0 1-24 80z m0 208a185 185 0 0 1-41-19 87 87 0 0 0-88 0 193 193 0 0 1-189 0 88 88 0 0 0-88 0 193 193 0 0 1-189 0 87 87 0 0 0-88 0 185 185 0 0 1-42 19 42 42 0 0 1-55-28 42 42 0 0 1 29-52 107 107 0 0 0 23-10 167 167 0 0 1 171 0 108 108 0 0 0 107 0 173 173 0 0 1 171 0 108 108 0 0 0 107 0 177 177 0 0 1 86-23 162 162 0 0 1 84 23 107 107 0 0 0 23 10 42 42 0 0 1-23 80z" horiz-adv-x="1000" />

<glyph glyph-name="rainbow" unicode="&#xeb0d;" d="M208 350a42 42 0 0 1 0-83 208 208 0 0 0 209-209 42 42 0 0 1 83 0 292 292 0 0 1-292 292z m0 333a42 42 0 0 1 0-83 542 542 0 0 0 542-542 42 42 0 0 1 83 0 625 625 0 0 1-625 625z m0-166a42 42 0 0 1 0-84 375 375 0 0 0 375-375 42 42 0 0 1 84 0 458 458 0 0 1-459 459z" horiz-adv-x="1000" />

<glyph glyph-name="desert" unicode="&#xeb0e;" d="M750 767a167 167 0 1 1 167-167 167 167 0 0 1-167 167z m0-250a83 83 0 1 0 83 83 83 83 0 0 0-83-83z m-125-500h-83v83a42 42 0 0 1-84 0v-83h-83v141l144 72a42 42 0 0 1 23 37v166a42 42 0 0 1-84 0v-140l-83-42v266a42 42 0 0 1-83 0v-349l-84 41v99a42 42 0 0 1-83 0v-125a42 42 0 0 1 23-37l144-72v-57h-167a42 42 0 0 1 0-84h500a42 42 0 0 1 0 84z" horiz-adv-x="1000" />

<glyph glyph-name="sunset" unicode="&#xeb0f;" d="M736 503a42 42 0 0 1 29 12l30 29a42 42 0 1 1-59 59l-28-30a42 42 0 0 1 0-58 42 42 0 0 1 28-12z m-236 97a42 42 0 0 1 42 42v41a42 42 0 0 1-84 0v-41a42 42 0 0 1 42-42z m-333-250h-42a42 42 0 0 1 0-83h42a42 42 0 0 1 0 83z m68 165a42 42 0 0 1 29-12 42 42 0 0 1 30 12 42 42 0 0 1 0 58l-30 30a42 42 0 0 1-59-59z m640-165h-42a42 42 0 0 1 0-83h42a42 42 0 0 1 0 83z m-417-292h-125a42 42 0 0 1 0-83h125a42 42 0 0 1 0 83z m292 167h-37a225 225 0 0 1 16 83 229 229 0 0 1-458 0 225 225 0 0 1 16-83h-37a42 42 0 0 1 0-83h500a42 42 0 0 1 0 83z m-131 0h-238a143 143 0 0 0-27 83 146 146 0 0 0 292 0 143 143 0 0 0-27-83z m48-167h-42a42 42 0 0 1 0-83h42a42 42 0 0 1 0 83z" horiz-adv-x="1000" />

<glyph glyph-name="mountains" unicode="&#xeb10;" d="M910 122l-208 333a42 42 0 0 1-71 0l-41-67-138 233a42 42 0 0 1-71 0l-292-500a42 42 0 0 1 36-63h750a42 42 0 0 1 35 64z m-475 20h-237l219 375 122-209z m98 0l92 143h0l42 70 133-213z" horiz-adv-x="1000" />

<glyph glyph-name="bolt-slash" unicode="&#xeb11;" d="M361 674a42 42 0 0 1 39 9h212l-52-197a42 42 0 0 1 7-36 42 42 0 0 1 33-17h150l-47-51a42 42 0 0 1 3-59 42 42 0 0 1 28-11 42 42 0 0 1 31 14l110 121a42 42 0 0 1-32 70h-189l54 197a42 42 0 0 1-7 36 42 42 0 0 1-34 17h-292a42 42 0 0 1-42-31l0-11a42 42 0 0 1 28-51z m542-669l-750 750a42 42 0 0 1-58-60l180-178-52-198a42 42 0 0 1 7-36 42 42 0 0 1 33-16h160l-75-281a42 42 0 0 1 20-48 42 42 0 0 1 20-5 42 42 0 0 1 31 14l202 223 224-225a42 42 0 0 1 60 0 42 42 0 0 1 0 60z m-585 345l26 98 97-98z m155-220l42 148 50-49z" horiz-adv-x="1000" />

<glyph glyph-name="telescope" unicode="&#xeb12;" d="M912 534l-41 161a125 125 0 0 1-155 88l-80-21a42 42 0 0 1-30-52l11-41-442-117a42 42 0 0 1-30-51l11-42-42-11a42 42 0 0 1 11-83 45 45 0 0 1 10 0l42 11 11-41a42 42 0 0 1 19-25 42 42 0 0 1 21-6 31 31 0 0 1 11 0l136 43v-18a121 121 0 0 1 13-53l-209-208a42 42 0 0 1 59-60l208 209 12-5v-258a42 42 0 0 1 83 0v258a105 105 0 0 1 12 5l209-209a42 42 0 1 1 58 60l-208 208a129 129 0 0 1 13 53v84l56 15 11-42a42 42 0 0 1 41-31l11 0 81 22a125 125 0 0 1 87 157z m-370-205a42 42 0 0 0-12-29h0v0a42 42 0 0 0-29-11 42 42 0 0 0-29 12h0a42 42 0 0 0-12 29v42l82 20z m-284 73l-22 80 403 108 11-42 10-41z m570 79a42 42 0 0 0-25-20l-42-11-33 121-20 81h0l-11 41 42 11a42 42 0 0 0 51-29l42-162a42 42 0 0 0-4-32z" horiz-adv-x="1000" />

<glyph glyph-name="sperms" unicode="&#xeb13;" d="M461 13a83 83 0 0 0-27 20 103 103 0 0 0-28 47 175 175 0 0 1-55 86 149 149 0 0 1-41 137 137 137 0 0 1-192 14 137 137 0 0 1 15-192 161 161 0 0 1 92-46l15 0a119 119 0 0 1 64 18 85 85 0 0 0 21-39 186 186 0 0 1 50-83 178 178 0 0 1 50-37 42 42 0 0 1 18-4 42 42 0 0 1 19 79z m-198 157a36 36 0 0 0-29-8 75 75 0 0 0-44 21c-24 24-30 58-15 74a34 34 0 0 0 23 8 75 75 0 0 0 52-22 75 75 0 0 0 23-44 36 36 0 0 0-10-29z m625 255a90 90 0 0 0-38 24 103 103 0 0 0-27 48 175 175 0 0 1-55 86 149 149 0 0 1-44 136 137 137 0 0 1-191 15 137 137 0 0 1 15-192 161 161 0 0 1 94-47l15 0a119 119 0 0 1 63 19 85 85 0 0 0 22-39 189 189 0 0 1 50-83 182 182 0 0 1 71-45 52 52 0 0 1 13-2 42 42 0 0 1 39 28 42 42 0 0 1-27 52z m-208 161a36 36 0 0 0-29-8 75 75 0 0 0-44 22c-24 23-31 58-15 74a34 34 0 0 0 23 8 75 75 0 0 0 52-22 75 75 0 0 0 23-44 36 36 0 0 0-10-30z m225-588a185 185 0 0 1-135 135 133 133 0 0 0-58 34 122 122 0 0 0-33 57 194 194 0 0 1-137 136 122 122 0 0 0-58 33 125 125 0 0 0-34 58 195 195 0 0 1-41 77 164 164 0 0 1 8 63 198 198 0 0 1-59 117 199 199 0 0 1-117 59 143 143 0 0 1-116-42 143 143 0 0 1-42-116 198 198 0 0 1 59-116 199 199 0 0 1 117-60l18 0a141 141 0 0 1 83 25 110 110 0 0 0 13-29 213 213 0 0 1 150-150 109 109 0 0 0 77-76 213 213 0 0 1 150-150 107 107 0 0 0 75-78 117 117 0 0 1 6-19 42 42 0 0 1 37-23 50 50 0 0 1 18 4 42 42 0 0 1 20 56s-1 4-1 5z m-587 534c-26-27-80-17-117 19a116 116 0 0 0-34 67 61 61 0 0 0 14 50 58 58 0 0 0 42 15 113 113 0 0 0 76-34 116 116 0 0 0 34-67 61 61 0 0 0-15-50z" horiz-adv-x="1000" />
</font>
</defs>
</svg>
